Torrent Details

Photo Not Available
Avengers Infinity War 2018 iTA-ENG Bluray 1080p x264-CYBER
Size11 GB in 1 file
ReleasesAdded on 08/08/18 at 12:19pm into the Movies category by Unknown.
Status286 seeds & 78 peers.
Hash6e96e1a754dd1ab43afc979dea9ad7ff78bd53e8
Rating
  • YourBT Visitors

Status This torrent has been verified.
*

Torrent Description

GIUSEPPEiCV & LITTLELINX
HANNO IL PIACERE DI PRESENTARE

AC3 iTA - DTS ENG 1080P



DATA USCITA: 25 aprile 2018
GENERE: Avventura, Azione, Fantasy
ANNO: 2018
REGIA: Anthony Russo, Joe Russo
ATTORI: Robert Downey Jr., Chris Evans, Chris Hemsworth, Karen Gillan, Pom Klementieff, Chris Pratt, Tom Holland, Benedict Cumberbatch, Scarlett Johansson, Zoe Saldana, Dave Bautista, Cobie Smulders, Vin Diesel, Sebastian Stan, Josh Brolin, Elizabeth Olsen, Bradley Cooper, Chadwick Boseman, Mark Ruffalo, Paul Bettany, Benicio Del Toro, Sean Gunn, Benedict Wong, Anthony Mackie, Terry Notary
PAESE: USA
DURATA: 149 Min


Trama: Il nuovo film Marvel Avengers: Infinity War porta sul grande schermo la più grande e fatale resa dei conti di tutti i tempi. Dopo gli eventi di Captain America: Civil War il gruppo di Vendicatori si divide, con Captain America/Steve Rogers (Chris Evans) che lascia cadere a terra il suo scudo. Tony Stark/Iron Man (Robert Downey Jr.), rimasto senza plotone alle spalle, impiega tutti i mezzi a disposizione per difendere il pianeta dall'ennesimo attacco alieno, dalle armature high tech di sua invenzione, ai finanziamenti da "miliardario playboy filantropo". Il nuovo nemico, Thanos (Josh Brolin), un potente tiranno intergalattico, è deciso a conquistare l'universo sfruttando il potere delle Gemme dell'Infinito, alcune delle quali finite nelle mani dell'avido Collezionista (Benicio del Toro) famoso cacciatore di artefatti spaziali. La minaccia imminente richiede l'intervento di tutti gli Avengers della formazione originale: Captain America, lo scienziato Bruce Banner (Mark Ruffalo) e il suo irascibile alter ego Hulk, Il dio del tuono Thor (Chris Hemsworth), la spia Vedova Nera (Scarlett Johansson), l'infallibile arciere Occhio di Falco (Jeremy Renner); al fianco dell'arrampicamuri Spider-Man (Tom Holland), dell'androide Visione (Paul Bettany) e di tutti i loro alleati. Ma le forze dispiegate non saranno ancora sufficienti a neutralizzare l'invincibile alieno. Per fortuna un aiuto arriverà dai confini della Galassia, dove Star Lord (Chris Pratt) e la sua sgangherata banda di Guardiani attendono impazienti.


.: Screenshot :.



.: Caratteristiche Tecniche :.

Sorgente AUDIO ENG: BLURAY
Sorgente AUDIO ITA: ITUNES

[spoiler]

Avengers.Infinity.War.2018.iTA-ENG.Bluray.1080p.x264-CYBER.mkv
Format                                   : Matroska
Format version                           : Version 2
File size                                : 11.0 GiB
Duration                                 : 2h 29mn
Overall bit rate                         : 10.6 Mbps
Encoded date                             : UTC 2018-08-07 23:16:36
Writing application                      : mkvmerge v15.0.0 ('Duel with the Devil') 64-bit
Writing library                          : libebml v1.3.5 + libmatroska v1.4.5
Attachment                               : Yes

Video
ID                                       : 1
Format                                   : AVC
Format/Info                              : Advanced Video Codec
Format profile                           : [email protected]
Format settings, CABAC                   : Yes
Format settings, ReFrames                : 5 frames
Codec ID                                 : V_MPEG4/ISO/AVC
Duration                                 : 2h 29mn
Bit rate                                 : 8 480 Kbps
Width                                    : 1 920 pixels
Height                                   : 800 pixels
Display aspect ratio                     : 2.40:1
Frame rate                               : 23.976 fps
Color space                              : YUV
Chroma subsampling                       : 4:2:0
Bit depth                                : 8 bits
Scan type                                : Progressive
Bits/(Pixel*Frame)                       : 0.230
Stream size                              : 8.85 GiB (80%)
Writing library                          : x264 core 155 r2901 7d0ff22
Language                                 : English
Default                                  : Yes
Forced                                   : No

Audio #1
ID                                       : 2
Format                                   : AC-3
Format/Info                              : Audio Coding 3
Mode extension                           : CM (complete main)
Codec ID                                 : A_AC3
Duration                                 : 2h 29mn
Bit rate mode                            : Constant
Bit rate                                 : 384 Kbps
Channel(s)                               : 6 channels
Channel positions                        : Front: L C R, Side: L R, LFE
Sampling rate                            : 48.0 KHz
Bit depth                                : 16 bits
Compression mode                         : Lossy
Stream size                              : 410 MiB (4%)
Title                                    : iTunes RESYNC
Language                                 : Italian
Default                                  : Yes
Forced                                   : No

Audio #2
ID                                       : 3
Format                                   : DTS
Format/Info                              : Digital Theater Systems
Codec ID                                 : A_DTS
Duration                                 : 2h 29mn
Bit rate mode                            : Constant
Bit rate                                 : 1 510 Kbps
Channel(s)                               : 6 channels
Channel positions                        : Front: L C R, Side: L R, LFE
Sampling rate                            : 48.0 KHz
Bit depth                                : 24 bits
Compression mode                         : Lossy
Stream size                              : 1.58 GiB (14%)
Language                                 : English
Default                                  : No
Forced                                   : No

Text #1
ID                                       : 4
Format                                   : UTF-8
Codec ID                                 : S_TEXT/UTF8
Codec ID/Info                            : UTF-8 Plain Text
Title                                    : FORCED
Language                                 : Italian
Default                                  : Yes
Forced                                   : No

Text #2
ID                                       : 5
Format                                   : UTF-8
Codec ID                                 : S_TEXT/UTF8
Codec ID/Info                            : UTF-8 Plain Text
Title                                    : REGOLARI
Language                                 : Italian
Default                                  : No
Forced                                   : No

Text #3
ID                                       : 6
Format                                   : UTF-8
Codec ID                                 : S_TEXT/UTF8
Codec ID/Info                            : UTF-8 Plain Text
Title                                    : FORCED
Language                                 : English
Default                                  : No
Forced                                   : No

Text #4
ID                                       : 7
Format                                   : UTF-8
Codec ID                                 : S_TEXT/UTF8
Codec ID/Info                            : UTF-8 Plain Text
Title                                    : NON UDENTI
Language                                 : English
Default                                  : No
Forced                                   : No

Menu
00:00:00.000                             : en:00:00:00.000
00:11:28.730                             : en:00:11:28.730
00:18:13.884                             : en:00:18:13.884
00:27:23.809                             : en:00:27:23.809
00:35:48.813                             : en:00:35:48.813
00:42:23.541                             : en:00:42:23.541
00:54:12.875                             : en:00:54:12.875
00:59:36.740                             : en:00:59:36.740
01:05:07.153                             : en:01:05:07.153
01:10:53.666                             : en:01:10:53.666
01:17:06.956                             : en:01:17:06.956
01:24:14.758                             : en:01:24:14.758
01:31:08.004                             : en:01:31:08.004
01:42:00.406                             : en:01:42:00.406
01:45:57.810                             : en:01:45:57.810
01:53:04.069                             : en:01:53:04.069
01:58:52.917                             : en:01:58:52.917
02:03:58.181                             : en:02:03:58.181
02:11:13.282                             : en:02:11:13.282
02:17:31.285                             : en:02:17:31.285


[/spoiler]


[/b]
.: Ringraziamenti :.




RESTATE IN SEED ALTRIMENTI



Similar Torrents

No Similar Torrents Found

If we find similar torrents, we normally show them right here. We couldn't find anything for "".

Torrent Trackers

TRACKER URLSEEDSPEERS
Onlineudp://tracker.open-internet.nl:6969/announce28675
Onlineudp://tracker.opentrackr.org:1337/announce28078
Onlineudp://tracker.coppersurfer.tk:6969/announce12238
Onlineudp://tracker.pirateparty.gr:6969/announce11643

Files inside this torrent

FILENAMESIZE
icon Avengers.Infinity.War.2018.iTA-ENG.Bluray.1080p.x264-CYBER.mkv11 GB